BosnianGamingForum
 
Početna stranicaCalendarFAQPretraľnikČlanstvoKorisničke grupeRegistracijaLogin

Share | 
 

 A Dangerous Man (2010)

Prethodna tema Sljedeća tema Go down 
Autor/icaPoruka
Don BenjamiN



Broj postova : 13
Join date : 03.01.2010

PostajNaslov: A Dangerous Man (2010)   ned sij 03, 2010 8:53 pm

[quote="Essous12"]..:: A Dangerous Man (2010) DVDRip.XviD-WOW ::..

**Best quality in network!**
**no CRC errors!**
**Added 10% corrective data!**
**Works in 100%**
**Recommend!**
[/color][/i][/b]



ScreenShots








Information:
Kod:
http://www.imdb.com/title/tt1360767/

.NFO:

Citat :

Video
ID : 0
Format : MPEG-4 Visual
Format profile : AdvancedSimple@L5
Format settings, BVOP : Yes
Format settings, QPel : No
Format settings, GMC : No warppoints
Format settings, Matrix : Custom
Codec ID : XVID
Codec ID/Hint : XviD
Duration : 1h 30mn
Bit rate : 954 Kbps
Width : 720 pixels
Height : 384 pixels
Display aspect ratio : 1.875
Frame rate : 25.000 fps
Resolution : 24 bits
Colorimetry : 4:2:0
Scan type : Progressive
Bits/(Pixel*Frame) : 0.138
Stream size : 618 MiB (88%)
Writing library : XviD 1.2.1 (UTC 2008-12-04)

Audio
ID : 1
Format : MPEG Audio
Format version : Version 1
Format profile : Layer 3
Codec ID : 55
Codec ID/Hint : MP3
Duration : 1h 30mn
Bit rate mode : Variable
Bit rate : 116 Kbps
Nominal bit rate : 128 Kbps
Channel(s) : 2 channels
Sampling rate : 48.0 KHz
Resolution : 16 bits
Stream size : 75.4 MiB (11%)
Alignment : Aligned on interleaves
Interleave, duration : 24 ms (0.60 video frame)
Interleave, preload duration : 501 ms
Writing library : LAME3.98r
Encoding settings : -m j -V 4 -q 2 -lowpass 17 --abr 128
Language : English

RAPIDSHARE.COM
Kod:
http://rapidshare.com/files/327640879/wow-adm.part1.rar
http://rapidshare.com/files/327644372/wow-adm.part2.rar
http://rapidshare.com/files/327644198/wow-adm.part3.rar
http://rapidshare.com/files/327637233/wow-adm.part4.rar
[Vrh] Go down
Korisnički profil
 
A Dangerous Man (2010)
Prethodna tema Sljedeća tema [Vrh] 
Stranica 1 / 1.

Permissions in this forum:Ne moľeą odgovarati na postove.
BosnianGamingForum :: Filmovi-
Forum(o)Bir: